Convertir Videos HD en Ubuntu


Quien no ha querido convertir videos en Ubuntu sea cual sea su extencion es una travesia muy larga para encontrar la solucion a nuestro problema.

En esta entrada podran convertir videos con la extencion;

.MP4
.AVI
.FLV
.OGV
Lo mejor de todo que las conversiones no empeoran la calidad del vídeo podremos decir que si hacemos la conversión bien sale con un 90% de la calidad original.

Para convertir cualquier video en Ubuntu necesitamos Codecs Multimedia y los instalaremos todos los posibles con las siguientes instrucciones ;

sudo wget –output-document=/etc/apt/sources.list.d/medibuntu.list http://www.medibuntu.org/sources.list.d/$(lsb_release -cs).list && sudo apt-get –quiet update && sudo apt-get –yes –quiet –allow-unauthenticated install medibuntu-keyring && sudo apt-get –quiet update

sudo apt-get install mencoder
sudo apt-get install ffmpeg
sudo apt-get install libdvdcss2
sudo apt-get install non-free-codecs
sudo apt-get install w32codecs

Ya instalados los codecs Multimedia solo nos queda convertir nuestro Video.

Supongamos que grabamos nuestro Escritorio recordMyDesktop el resultado sera un Vídeo con la extencion OGV, pero que pasa si lo queremos convertir a MP4 es facil.

1.-Lo Primero, debemos conocer la Calidad del Video para ello Utilizamos el Comando

ffmpeg -i Nombre del Video.ogv

Si el video se encuentra en la carpeta de video navegamos a ella con el comando;

cd Vídeos

Nos encontramos en la carpeta, solo queda agregar el comando mencionado quedaría algo asi;

[email protected]:~$ cd Vídeos
[email protected]:~/Vídeos$ ffmpeg -i out.ogv
ffmpeg version 0.7.2-4:0.7.2-1ubuntu1, Copyright (c) 2000-2011 the Libav developers
built on Oct 2 2011 15:12:32 with gcc 4.6.1
configuration: –extra-version=’4:0.7.2-1ubuntu1′ –arch=i386 —
libavutil 51. 7. 0 / 51. 7. 0
libavcodec 53. 5. 0 / 53. 5. 0
libavformat 53. 2. 0 / 53. 2. 0
libavdevice 53. 0. 0 / 53. 0. 0
libavfilter 2. 4. 0 / 2. 4. 0
libswscale 2. 0. 0 / 2. 0. 0
libpostproc 52. 0. 0 / 52. 0. 0
[ogg @ 0xa073a40] max_analyze_duration reached
Input #0, ogg, from ‘out.ogv’:
Duration: 00:00:16.66, start: 0.000000, bitrate: 1436 kb/s
Stream #0.0: Data: skeleton
Stream #0.1: Video: theora, yuv420p, 1920×1072 [PAR 1:1 DAR 120:67], 15 fps, 15 tbr, 15 tbn, 15 tbc
Stream #0.2: Audio: vorbis, 22050 Hz, mono, s16, 89 kb/s
At least one output file must be specified

Rojo = Comandos Realizados

Verde = Nombre del video

Amarillo = El dato de color amarillo es lo que importa para convertir el video en una buena calidad casi la misma pero con otro formato ya que sabemos bitrate: 1436 kb/s del vídeo solo falta añadir el comando de conversión

mencoder -idx out.ogv -ovc lavc -lavcopts vbitrate=1436 -oac mp3lame -o out.mp4

Azul = Nombre del Vídeo para Convertir

Verde = Nombre de Salida de Vídeo

Amarillo = el bitrate: 1436 kb/s del vídeo obtenido con ffmpeg -i

Y listo tendremos nuestra conversión finalizada.

Si queremos convertir a otro formato solo cambiamos las extensiones y listo.

Fuentes de Información

El contenido del post es de mi autoría, y/o, es un recopilación de distintas fuentes.

Deja un comentario

Tu dirección de correo electrónico no será publicada. Los campos obligatorios están marcados con *